反贪风暴4/P风暴 [内嵌繁简英字幕] P.Storm.2019.CHINESE.720p.BluRay.X264-WiKi

发布人: 匿名  
类型:电影  720P电影
[2019][香港][动作]
大小:4.73 GB
资源得分:暂无评分  / 该工友平均得分:  
 
 
 



◎译  名 反贪风暴4/P风暴
◎片  名 Killers Anonymous
◎年  代 2019
◎国  家 中国/中国香港
◎类  别 动作/犯罪
◎语  言 普通话
◎IMDb评分 6.0/10 from 201 users
◎IMDb链接 https://www.imdb.com/title/tt10017680/
◎片  长 1 h 36 min
◎导  演 林德禄 David Lam
◎主  演 古天乐 Louis Koo
       郑嘉颖 Kevin Cheng
       林峯 Raymond Lam
       林家栋 Ka Tung Lam
       周秀娜 Chrissie Chaw




◎简  介



  廉政公署收到报案人廖雨萍(周秀娜饰)的实名举报,举报正在坐牢的富二代曹元元(林峯饰)涉嫌行贿监狱里的监督沈国强(谭耀文饰)以及惩教员,首席调查主任陆志廉(古天乐饰)决定深入虎穴,卧底狱中。在监狱里,被陆志廉送入监狱的前警司黄文彬(林家栋饰)以及曹元元两大帮派势成水火,陆志廉趁机接近曹元元取得信任。同时监狱外的廉政公署总调查主任程德明(郑嘉颖饰)、国内反贪局行动处处长洪亮(丁海峰饰)也陆港联手,通力合作,最终成功破获贪腐行贿大案。

幕后制作

  影片此次将创作背景设定在“狱中”这一特殊的环境之下,讲述了香港纪律部队首次进入狱中查案的全过程,揭秘极端环境下不为人知的残酷真相。
[code]Video
ID : 1
Format : AVC
Format/Info : Advanced Video Codec
Format profile : [email][email protected][/email]
Format settings : CABAC / 11 Ref Frames
Format settings, CABAC : Yes
Format settings, ReFrames : 11 frames
Codec ID : V_MPEG4/ISO/AVC
Duration : 1 h 36 min
Bit rate : 6 402 kb/s
Width : 1 280 pixels
Height : 546 pixels
Display aspect ratio : 2.35:1
Frame rate mode : Constant
Frame rate : 24.000 FPS
Color space : YUV
Chroma subsampling : 4:2:0
Bit depth : 8 bits
Scan type : Progressive
Bits/(Pixel*Frame) : 0.382
Stream size : 4.30 GiB (91%)
Writing library : x264 core 157 r2867+103 0d6443f t_mod_Custom_2 [[email protected] X86_64]
Encoding settings : cabac=1 / ref=11 / deblock=1:-3:-3 / analyse=0x3:0x133 / me=umh / subme=10 / psy=1 / fade_compensate=0.00 / psy_rd=1.00:0.00 / mixed_ref=1 / me_range=32 / chroma_me=1 / trellis=2 / 8x8dct=1 / cqm=0 / deadzone=21,11 / fast_pskip=0 / chroma_qp_offset=-2 / threads=17 / lookahead_threads=2 / sliced_threads=0 / nr=0 / decimate=0 / interlaced=0 / bluray_compat=0 / constrained_intra=0 / fgo=0 / bframes=7 / b_pyramid=2 / b_adapt=2 / b_bias=0 / direct=3 / weightb=1 / open_gop=0 / weightp=2 / keyint=250 / keyint_min=24 / scenecut=40 / intra_refresh=0 / rc=crf / mbtree=0 / crf=15.3000 / qcomp=0.70 / qpmin=0:0:0 / qpmax=69:69:69 / qpstep=4 / ip_ratio=1.30 / pb_ratio=1.20 / aq=3:0.80 / aq-sensitivity=10.00 / aq-factor=1.00:1.00:1.00 / aq2=0 / aq3=0 / zones=48,287,crf=13.5
Language : English
Default : Yes
Forced : No

Audio
ID : 2
Format : AC-3
Format/Info : Audio Coding 3
Commercial name : Dolby Digital
Codec ID : A_AC3
Duration : 1 h 36 min
Bit rate mode : Constant
Bit rate : 640 kb/s
Channel(s) : 6 channels
Channel layout : L R C LFE Ls Rs
Sampling rate : 48.0 kHz
Frame rate : 31.250 FPS (1536 SPF)
Bit depth : 16 bits
Compression mode : Lossy
Stream size : 440 MiB (9%)
Title : Cantonese
Language : Chinese
Service kind : Complete Main
Default : Yes
Forced : No

Text #1
ID : 3
Format : UTF-8
Codec ID : S_TEXT/UTF8
Codec ID/Info : UTF-8 Plain Text
Duration : 1 h 32 min
Bit rate : 45 b/s
Count of elements : 1423
Stream size : 30.6 KiB (0%)
Language : English
Default : Yes
Forced : No

Text #2
ID : 4
Format : UTF-8
Codec ID : S_TEXT/UTF8
Codec ID/Info : UTF-8 Plain Text
Duration : 1 h 32 min
Bit rate : 39 b/s
Count of elements : 1389
Stream size : 26.9 KiB (0%)
Title : CHS
Language : Chinese
Default : No
Forced : No

Text #3
ID : 5
Format : UTF-8
Codec ID : S_TEXT/UTF8
Codec ID/Info : UTF-8 Plain Text
Duration : 1 h 32 min
Bit rate : 39 b/s
Count of elements : 1389
Stream size : 26.9 KiB (0%)
Title : CHT
Language : Chinese
Default : No
Forced : No

Menu
00:00:00.000 : en:00:00:00.000
00:05:09.208 : en:00:05:09.208
00:09:23.792 : en:00:09:23.792
00:12:11.542 : en:00:12:11.542
00:16:45.292 : en:00:16:45.292
00:20:26.500 : en:00:20:26.500
00:25:31.208 : en:00:25:31.208
00:31:48.583 : en:00:31:48.583
00:37:57.000 : en:00:37:57.000
00:42:56.625 : en:00:42:56.625
00:48:23.500 : en:00:48:23.500
00:53:34.042 : en:00:53:34.042
00:58:25.208 : en:00:58:25.208
01:04:39.542 : en:01:04:39.542
01:08:46.292 : en:01:08:46.292
01:15:28.750 : en:01:15:28.750
01:25:31.333 : en:01:25:31.333
01:33:16.000 : en:01:33:16.000
[/code]






部分内容需要登录后才能查看。登录












电影,电视剧,字幕下载软件地址:http://www.byg520.com/magnetm/706d600a73684616a3d4d3145dc4ec04.html

还没有人发表评论哦~您要说点什么吗?

快捷评论:

 
 登录后可评论资源 ^0^ 点我登录