我们无法阻挡 Dare.to.Stop.Us.2018.JAPANESE.1080p.BluRay.x264.DTS-PbK 11.22GB

发布人: iRobot  银河系工友
类型:电影  1080P电影
[2018][日本][剧情]
大小:11.21 GB
资源得分:暂无评分  / 该工友平均得分:9.2  
 
 
 

帖子完整标题:我们无法阻挡 Dare.to.Stop.Us.2018.JAPANESE.1080p.BluRay.x264.DTS-PbK 11.22GB




◎译  名 我们无法阻挡 / Dare to Stop Us / 若松独立Go Go Go(港)
◎片  名 止められるか、俺たちを
◎年  代 2018
◎产  地 日本
◎类  别 剧情
◎语  言 日语
◎上映日期 2018-10-05(釜山电影节) / 2018-10-13(日本)
◎IMDb评分 6.4/10 from 51 users
◎IMDb链接 https://www.imdb.com/title/tt8764582
◎豆瓣评分 6.8/10 from 420 users
◎豆瓣链接 https://movie.douban.com/subject/30186498/
◎片  长 119分钟
◎导  演 白石和弥 Kazuya Shiraishi
◎编  剧 井上淳一
◎主  演 门胁麦 Mugi Kadowaki
      井浦新 ARATA
      满岛真之介 Shin'nosuke Mitsushima
      涩川清彦 Kiyohiko Shibukawa
      音尾琢真 Takuma Otoo
      高冈奏辅 Sosuke Takaoka
      高良健吾 Kengo Kora
      寺岛忍 Shinobu Terajima
      奥田瑛二 Eiji Okuda


◎标  签 日本 | 日本电影 | 2018 | 门胁麦 | 白石和弥 | 井浦新 | 剧情 | 日影

◎简  介

  1969年,33岁的未来名监督 若松孝二(井浦新),热衷于粉红电影的制作,此时,一位少女(麦)敲开了若松制作公司的门,两人开始一起製作电影,青春、电影,还有爱情,一出青春群像剧就此展开。

◎获奖情况

  第61届日本电影蓝丝带奖(2019)
  最佳导演 白石和弥
  最佳女主角 门胁麦
  年度十佳日本电影
Video
ID : 1
Format : AVC
Format/Info : Advanced Video Codec
Format profile : [email protected]
Format settings : CABAC / 5 Ref Frames
Format settings, CABAC : Yes
Format settings, Reference frames : 5 frames
Codec ID : V_MPEG4/ISO/AVC
Duration : 1 h 58 min
Bit rate : 12.0 Mb/s
Width : 1 920 pixels
Height : 822 pixels
Display aspect ratio : 2.35:1
Frame rate mode : Constant
Frame rate : 23.976 (24000/1001) FPS
Color space : YUV
Chroma subsampling : 4:2:0
Bit depth : 8 bits
Scan type : Progressive
Bits/(Pixel*Frame) : 0.317
Stream size : 9.74 GiB (87%)
Title : theonlyh
Writing library : x264 core 155 r2901 7d0ff22
Encoding settings : cabac=1 / ref=5 / deblock=1:-3:-3 / analyse=0x3:0x133 / me=umh / subme=11 / psy=1 / psy_rd=1.00:0.00 / mixed_ref=1 / me_range=64 / chroma_me=1 / trellis=2 / 8x8dct=1 / cqm=0 / deadzone=21,11 / fast_pskip=1 / chroma_qp_offset=-2 / threads=18 / lookahead_threads=3 / sliced_threads=0 / nr=0 / decimate=1 / interlaced=0 / bluray_compat=0 / constrained_intra=0 / bframes=8 / b_pyramid=2 / b_adapt=2 / b_bias=0 / direct=3 / weightb=1 / open_gop=0 / weightp=2 / keyint=240 / keyint_min=24 / scenecut=40 / intra_refresh=0 / rc=2pass / mbtree=0 / bitrate=12000 / ratetol=1.0 / qcomp=0.60 / qpmin=0 / qpmax=69 / qpstep=4 / cplxblur=20.0 / qblur=0.5 / ip_ratio=1.30 / pb_ratio=1.20 / aq=3:0.80
Language : Japanese
Default : Yes
Forced : No
Color range : Limited
Color primaries : BT.709
Transfer characteristics : BT.709
Matrix coefficients : BT.709
Statistics Tags Issue : mkvmerge v40.0.0 (\'Old Town Road + Pony\') 64-bit 2019-12-01 13:39:06 / mkvmerge v40.0.0 (\'Old Town Road + Pony\') 64-bit 2019-12-01 13:39:06 / UTC 2019-12-01T08:21:52Z
FromStats_BitRate : 11986615
FromStats_Duration : 01:58:41.239000000
FromStats_FrameCount : 170739
FromStats_StreamSize : 10669943993

Audio
ID : 2
Format : DTS
Format/Info : Digital Theater Systems
Codec ID : A_DTS
Duration : 1 h 58 min
Bit rate mode : Constant
Bit rate : 1 509 kb/s
Channel(s) : 6 channels
Channel layout : C L R Ls Rs LFE
Sampling rate : 48.0 kHz
Frame rate : 93.750 FPS (512 SPF)
Bit depth : 24 bits
Compression mode : Lossy
Stream size : 1.25 GiB (11%)
Language : Japanese
Default : Yes
Forced : No
Statistics Tags Issue : mkvmerge v40.0.0 (\'Old Town Road + Pony\') 64-bit 2019-12-01 13:39:06 / mkvmerge v40.0.0 (\'Old Town Road + Pony\') 64-bit 2019-12-01 13:39:06 / UTC 2019-12-01T08:21:52Z
FromStats_BitRate : 1508999
FromStats_Duration : 01:58:41.270000000
FromStats_FrameCount : 667619
FromStats_StreamSize : 1343249428

Text #1
ID : 3
Format : UTF-8
Codec ID : S_TEXT/UTF8
Codec ID/Info : UTF-8 Plain Text
Language : English
Default : Yes
Forced : No
Statistics Tags Issue : mkvmerge v40.0.0 (\'Old Town Road + Pony\') 64-bit 2019-12-01 13:39:06 / mkvmerge v40.0.0 (\'Old Town Road + Pony\') 64-bit 2019-12-01 13:39:06 / UTC 2019-12-01T08:21:52Z
FromStats_BitRate : 42
FromStats_Duration : 01:54:36.494000000
FromStats_FrameCount : 1424
FromStats_StreamSize : 36541

Text #2
ID : 4
Format : PGS
Muxing mode : zlib
Codec ID : S_HDMV/PGS
Codec ID/Info : Picture based subtitle format used on BDs/HD-DVDs
Language : Chinese
Default : No
Forced : No
Statistics Tags Issue : mkvmerge v40.0.0 (\'Old Town Road + Pony\') 64-bit 2019-12-01 13:39:06 / mkvmerge v40.0.0 (\'Old Town Road + Pony\') 64-bit 2019-12-01 13:39:06 / UTC 2019-12-01T08:21:52Z
FromStats_BitRate : 33802
FromStats_Duration : 01:53:33.181000000
FromStats_FrameCount : 2606
FromStats_StreamSize : 28788206

Text #3
ID : 5
Format : PGS
Muxing mode : zlib
Codec ID : S_HDMV/PGS
Codec ID/Info : Picture based subtitle format used on BDs/HD-DVDs
Language : Chinese
Default : No
Forced : No
Statistics Tags Issue : mkvmerge v40.0.0 (\'Old Town Road + Pony\') 64-bit 2019-12-01 13:39:06 / mkvmerge v40.0.0 (\'Old Town Road + Pony\') 64-bit 2019-12-01 13:39:06 / UTC 2019-12-01T08:21:52Z
FromStats_BitRate : 34034
FromStats_Duration : 01:53:33.181000000
FromStats_FrameCount : 2606
FromStats_StreamSize : 28985315





部分内容需要登录后才能查看。登录












我是机器人,给我留言也不会回复,谢谢.......

还没有人发表评论哦~您要说点什么吗?

快捷评论:

 
 登录后可评论资源 ^0^ 点我登录