流浪地球.2019.CHINESE.1080p.BluRay.x264.TrueHD.7.1.Atmos-FGT 14.86GB

发布人: 匿名  
类型:电影  1080P电影
[2019][大陆][科幻]
大小:14.85 GB
资源得分:9.3  / 该工友平均得分:  
 
 
 



 

影片信息
 



◎译  名 The Wandering Earth
◎片  名 流浪地球
◎年  代 2019
◎产  地 中国大陆
◎类  别 科幻 / 灾难
◎语  言 汉语普通话 / 英语 / 俄语 / 法语 / 日语 / 韩语 / 印尼语
◎上映日期 2019-02-05(中国大陆)
◎IMDb评分  6.1/10 from 20383 users
◎IMDb链接  http://www.imdb.com/title/tt7605074
◎豆瓣评分 7.9/10 from 1307389 users
◎豆瓣链接 https://movie.douban.com/subject/26266893/
◎片  长 125分钟
◎导  演 郭帆 Frant Gwo
◎编  剧 龚格尔 Geer Gong / 严东旭 Dongxu Yan / 郭帆 Frant Gwo / 叶俊策 Junce Ye / 杨治学 Zhixue Yang / 吴荑 Ti Wu / 叶濡畅 Ruchang Ye / 沈晶晶 Jingjing Shen / 刘慈欣 Cixin Liu
◎主  演 屈楚萧 Shaw
       吴京 Jing Wu
       李光洁 Guangjie Li
       吴孟达 Man Tat Ng
       赵今麦 Jinmai Zhao
       隋凯 Michael Stephen Kai Sui
       屈菁菁 Jingjing Qu
       张亦驰 Yichi Zhang
       杨皓宇 Haoyu Yang
       阿尔卡基·沙罗格拉茨基
       李虹辰 Hongchen Li
       杨轶 Yi Yang
       姜志刚 Zhignag jiang
       张欢 Huan Zhang
       雷佳音 Jiayin Lei
       宁浩 Hao Ning
       刘慈欣 Cixin Liu
       郭京飞 Jingfei Guo
       王智 Zhi Wang
       张子贤 Zixian Zhang
       路阳 Yang Lu
       张宁 Ning Zhang
       张小北 Xiaobei Zhang
       饶晓志 Xiaozhi Rao
       陶珞依 Luoyi Tao
       吴晓亮 Xiaoliang Wu
       龚格尔 Geer Gong
       郭帆 Frant Gwo


◎标  签 科幻 | 中国大陆 | 灾难 | 太空 | 小说改编 | 2019 | 人性 | 行星发动机




 

内容简介
 




  ◎简  介  

  近未来,科学家们发现太阳急速衰老膨胀,短时间内包括地球在内的整个太阳系都将被太阳所吞没。为了自救,人类提出一个名为“流浪地球”的大胆计划,即倾全球之力在地球表面建造上万座发动机和转向发动机,推动地球离开太阳系,用2500年的时间奔往另外一个栖息之地。中国航天员刘培强(吴京 饰)在儿子刘启四岁那年前往国际空间站,和国际同侪肩负起领航者的重任。转眼刘启(屈楚萧 饰)长大,他带着妹妹朵朵(赵今麦 饰)偷偷跑到地表,偷开外公韩子昂(吴孟达 饰)的运输车,结果不仅遭到逮捕,还遭遇了全球发动机停摆的事件。为了修好发动机,阻止地球坠入木星,全球开始展开饱和式营救,连刘启他们的车也被强征加入。在与时间赛跑的过程中,无数的人前仆后继,奋不顾身,只为延续百代子孙生存的希望……
  本片根据刘慈欣的同名小说改编。

◎获奖情况  

  第9届北京国际电影节(2019)
  天坛奖 最佳视觉效果奖
  天坛奖(提名) 郭帆

  第26届北京大学生电影节(2019)
  最佳影片奖

  第5届豆瓣电影年度榜单(2018)
  最值得期待的华语电影(提名)


 

截图预览
 





 

参数信息
 



[code]
Video
ID : 1
Format : AVC
Format/Info : Advanced Video Codec
Format profile : [email protected]
Format settings : CABAC / 4 Ref Frames
Format settings, CABAC : Yes
Format settings, Reference frames : 4 frames
Codec ID : V_MPEG4/ISO/AVC
Duration : 2 h 5 min
Bit rate : 11.5 Mb/s
Width : 1 920 pixels
Height : 752 pixels
Display aspect ratio : 2.553
Frame rate mode : Constant
Frame rate : 24.000 FPS
Color space : YUV
Chroma subsampling : 4:2:0
Bit depth : 8 bits
Scan type : Progressive
Bits/(Pixel*Frame) : 0.332
Stream size : 10.1 GiB (68%)
Title : The.Wandering.Earth.2019.CHINESE.1080p.BluRay.x264.TrueHD.7.1.Atmos-FGT
Writing library : x264 core 148 r2795M aaa9aa8
Encoding settings : cabac=1 / ref=4 / deblock=1:-2:-2 / analyse=0x3:0x113 / me=umh / subme=9 / psy=1 / psy_rd=1.00:0.15 / mixed_ref=1 / me_range=16 / chroma_me=1 / trellis=2 / 8x8dct=1 / cqm=0 / deadzone=21,11 / fast_pskip=1 / chroma_qp_offset=-3 / threads=72 / lookahead_threads=3 / sliced_threads=0 / nr=0 / decimate=1 / interlaced=0 / bluray_compat=0 / constrained_intra=0 / bframes=3 / b_pyramid=2 / b_adapt=1 / b_bias=0 / direct=3 / weightb=1 / open_gop=0 / weightp=2 / keyint=250 / keyint_min=25 / scenecut=40 / intra_refresh=0 / rc_lookahead=50 / rc=2pass / mbtree=1 / bitrate=11500 / ratetol=1.0 / qcomp=0.60 / qpmin=0 / qpmax=69 / qpstep=4 / cplxblur=20.0 / qblur=0.5 / vbv_maxrate=31250 / vbv_bufsize=31250 / nal_hrd=none / filler=0 / ip_ratio=1.40 / aq=1:1.00
Language : English
Default : Yes
Forced : No

Audio #1
ID : 2
Format : MLP FBA 16-ch
Format/Info : Meridian Lossless Packing FBA with 16-channel presentation
Commercial name : Dolby TrueHD with Dolby Atmos
Codec ID : A_TRUEHD
Duration : 2 h 5 min
Bit rate mode : Variable
Bit rate : 4 770 kb/s
Maximum bit rate : 8 064 kb/s
Channel(s) : 8 channels
Channel layout : L R C LFE Ls Rs Lb Rb
Sampling rate : 48.0 kHz
Frame rate : 1 200.000 FPS (40 SPF)
Compression mode : Lossless
Stream size : 4.17 GiB (28%)
Title : The.Wandering.Earth.2019.CHINESE.1080p.BluRay.x264.TrueHD.7.1.Atmos-FGT
Language : Chinese
Default : Yes
Forced : No
Number of dynamic objects : 11
Bed channel count : 1 channel
Bed channel configuration : LFE

Audio #2
ID : 3
Format : AC-3
Format/Info : Audio Coding 3
Commercial name : Dolby Digital
Codec ID : A_AC3
Duration : 2 h 5 min
Bit rate mode : Constant
Bit rate : 640 kb/s
Channel(s) : 6 channels
Channel layout : L R C LFE Ls Rs
Sampling rate : 48.0 kHz
Frame rate : 31.250 FPS (1536 SPF)
Bit depth : 16 bits
Compression mode : Lossy
Stream size : 573 MiB (4%)
Title : The.Wandering.Earth.2019.CHINESE.1080p.BluRay.x264.TrueHD.7.1.Atmos-FGT
Language : Chinese
Service kind : Complete Main
Default : No
Forced : No

Text #1
ID : 4
Format : UTF-8
Codec ID : S_TEXT/UTF8
Codec ID/Info : UTF-8 Plain Text
Duration : 1 h 57 min
Bit rate : 54 b/s
Count of elements : 1758
Stream size : 47.4 KiB (0%)
Title : English-SRT
Language : English
Default : Yes
Forced : No

Text #2
ID : 5
Format : PGS
Muxing mode : zlib
Codec ID : S_HDMV/PGS
Codec ID/Info : Picture based subtitle format used on BDs/HD-DVDs
Duration : 1 h 57 min
Bit rate : 35.0 kb/s
Count of elements : 2711
Stream size : 29.5 MiB (0%)
Title : English-PGS
Language : English
Default : No
Forced : No

Text #3
ID : 6
Format : PGS
Muxing mode : zlib
Codec ID : S_HDMV/PGS
Codec ID/Info : Picture based subtitle format used on BDs/HD-DVDs
Duration : 2 h 3 min
Bit rate : 14.7 kb/s
Count of elements : 2802
Stream size : 13.1 MiB (0%)
Title : Chinese-PGS
Language : Chinese
Default : No
Forced : No

Menu
00:00:00.000 : en:Chapter 01
00:09:02.708 : en:Chapter 02
00:22:19.250 : en:Chapter 03
00:32:36.416 : en:Chapter 04
00:41:24.666 : en:Chapter 05
00:50:44.166 : en:Chapter 06
00:58:43.333 : en:Chapter 07
01:09:27.625 : en:Chapter 08
01:20:09.625 : en:Chapter 09
01:34:25.291 : en:Chapter 10
01:45:38.583 : en:Chapter 11
01:55:38.250 : en:Chapter 12
[/code]


部分内容需要登录后才能查看。登录












电影,电视剧,字幕下载软件地址:http://www.byg520.com/magnetm/706d600a73684616a3d4d3145dc4ec04.html

回复人内容
wsypXSY168 (准工友) 感谢楼主分享!
stallone2019 (准工友) 总算等到了,之前不是版本不好就是无法下载
zz1002zz (准工友) 终于出来了!1
zz1002zz (准工友) 终于出来了!1
zz1002zz (准工友) 终于出来了!1
zz1002zz (准工友) 终于出来了!1
linpo (准工友) 正需要,支持楼主大人了!
多乐咪 (准工友) 谢谢楼主的分享
ZQWXX123 (准工友) 正需要,支持楼主大人了!
newdpx (准工友) 感谢楼主分享!
zhxfirst (准工友) 感谢楼主分享!
zhx123cyc (准工友) 谢谢楼主一生平安。
利涉大川 (准工友) 感谢楼主分享!
wowowo4567 (准工友) 感谢楼主分享!

快捷评论:

 
 登录后可评论资源 ^0^ 点我登录