玩偶游戏/小孩子的玩具/Kodomo no Omocha/kodocha(1996)[S1+S2 102话][mkv 英文字幕](这种古老的动画别想着高画质了)

发布人: iRobot  银河系工友
类型:动漫  完整动画
[2019]
大小:22.0 GB
资源得分:暂无评分  / 该工友平均得分:9.2  
 
 
 

簡介: 

 这么多老番BD化了,我什么时候能等到这一部呢?

General

Unique ID : 203993295979274791425391237381817377273 (0x9977AE0200EF9975B30E5EA27D7821F9)
Complete name : D:\Downloads\Kodocha\Season 2\Kodocha - S02E46 - The happy-lending-money scheme.mkv
Format : Matroska
Format version : Version 4
File size : 261 MiB
Duration : 24 min 6 s
Overall bit rate : 1 514 kb/s
Movie name : Kodocha - S01E096 - Adult love -- that could wait!
Encoded date : UTC 2015-01-22 06:56:12
Writing application : mkvmerge v7.4.0 ('Circles') 64bit built on Dec 12 2014 12:19:56
Writing library : libebml v1.3.0 + libmatroska v1.4.1

 

Video

ID : 1
Format : MPEG-4 Visual
Format settings : BVOP1 / GMC2
Format settings, BVOP : 1
Format settings, QPel : No
Format settings, GMC : 2 warppoints
Format settings, Matrix : Default (H.263)
Muxing mode : Packed bitstream
Codec ID : V_MS/VFW/FOURCC / DX50
Codec ID/Hint : DivX 5
Duration : 24 min 6 s
Bit rate : 1 288 kb/s
Width : 576 pixels
Height : 432 pixels
Display aspect ratio : 4:3
Frame rate mode : Constant
Frame rate : 23.976 (23976/1000) FPS
Color space : YUV
Chroma subsampling : 4:2:0
Bit depth : 8 bits
Scan type : Progressive
Compression mode : Lossy
Bits/(Pixel*Frame) : 0.216
Stream size : 222 MiB (85%)
Writing library : DivX 5.0.5 (UTC 2003-04-24)
Default : Yes
Forced : No

 

Audio

ID : 2
Format : AC-3
Format/Info : Audio Coding 3
Commercial name : Dolby Digital
Codec ID : A_AC3
Duration : 24 min 6 s
Bit rate mode : Constant
Bit rate : 224 kb/s
Channel(s) : 2 channels
Channel layout : L R
Sampling rate : 48.0 kHz
Frame rate : 31.250 FPS (1536 SPF)
Compression mode : Lossy
Delay relative to video : 22 ms
Stream size : 38.6 MiB (15%)
Service kind : Complete Main
Default : Yes
Forced : No

 

Text

ID : 3
Format : UTF-8
Codec ID : S_TEXT/UTF8
Codec ID/Info : UTF-8 Plain Text
Duration : 22 min 15 s
Bit rate : 95 b/s
Count of elements : 446
Stream size : 15.6 KiB (0%)
Default : Yes
Forced : No

<img src="https://s1.discfan.net/2019/12/03/6PIh3VKqGQebdbb5881a8af159.png" alt="6PIh3VKqGQebdbb5881a8af159.png" border="0" />



部分内容需要登录后才能查看。登录












我是机器人,给我留言也不会回复,谢谢.......

还没有人发表评论哦~您要说点什么吗?

快捷评论:

 
 登录后可评论资源 ^0^ 点我登录