寻找斯蒂夫·麦昆 Finding.Steve.McQueen.2019.BDRip.1080p-Unknown 10.68 GiB

发布人: 匿名  
类型:电影  1080P电影
[2019][欧美][犯罪]
大小:10.68 GB
资源得分:暂无评分  / 该工友平均得分:  
 
 
 



◎译  名 寻找斯蒂夫·麦昆
◎片  名 Finding Steve McQueen
◎年  代 2018
◎国  家 美国
◎类  别 犯罪/爱情
◎语  言 英语
◎IMDb评分 6.3/10 from 1469 users
◎IMDB链接 https://www.imdb.com/title/tt6032328/[/colo]
◎片  长 1 h 31 min   
◎导  演 马克·斯蒂文·约翰逊 Mark Steven Johnson
◎主  演 崔维斯·费米尔 Travis Fimmel
       莉莉·拉贝 Lily Rabe
       威廉·菲德内尔 William Fichtner


◎简  介

  该片由马克·史蒂文·约翰逊执导,改编自美国历史上一次的真实银行抢劫案件。[code]General
Unique ID : 79278570433800422117036889523442808879 (0x3BA47F4D647F61D30F3CFF160131F82F)
Complete name : G:Finding.Steve.McQueen.2019.BDRip.1080p.mkv
Format : Matroska
Format version : Version 4 / Version 2
File size : 10.7 GiB
Duration : 1 h 31 min
Overall bit rate : 16.7 Mb/s
Encoded date : UTC 2019-08-12 23:59:25
Writing application : mkvmerge v20.0.0 ('I Am The Sun') 64-bit
Writing library : libebml v1.3.5 + libmatroska v1.4.8

Video
ID : 1
Format : AVC
Format/Info : Advanced Video Codec
Format profile : [email protected]
Format settings : CABAC / 4 Ref Frames
Format settings, CABAC : Yes
Format settings, RefFrames : 4 frames
Codec ID : V_MPEG4/ISO/AVC
Duration : 1 h 31 min
Bit rate : 15.0 Mb/s
Width : 1 920 pixels
Height : 1 040 pixels
Display aspect ratio : 1.85:1
Frame rate mode : Constant
Frame rate : 23.976 (24000/1001) FPS
Color space : YUV
Chroma subsampling : 4:2:0
Bit depth : 8 bits
Scan type : Progressive
Bits/(Pixel*Frame) : 0.313
Stream size : 9.59 GiB (90%)
Writing library : x264 core 155 r2867+74 66b5600 t_mod_Custom_2 [[email protected] X86_64]
Encoding settings : cabac=1 / ref=4 / deblock=1:-3:-3 / analyse=0x3:0x133 / me=umh / subme=11 / psy=1 / fade_compensate=0.00 / psy_rd=1.00:0.00 / mixed_ref=1 / me_range=32 / chroma_me=1 / trellis=2 / 8x8dct=1 / cqm=0 / deadzone=21,11 / fast_pskip=0 / chroma_qp_offset=-2 / threads=18 / lookahead_threads=3 / sliced_threads=0 / nr=0 / decimate=0 / interlaced=0 / bluray_compat=0 / constrained_intra=0 / fgo=0 / bframes=9 / b_pyramid=2 / b_adapt=2 / b_bias=0 / direct=3 / weightb=1 / open_gop=0 / weightp=2 / keyint=250 / keyint_min=23 / scenecut=40 / intra_refresh=0 / rc=2pass / mbtree=0 / bitrate=15000 / ratetol=1.0 / qcomp=0.60 / qpmin=0:0:0 / qpmax=69:69:69 / qpstep=4 / cplxblur=20.0 / qblur=0.5 / ip_ratio=1.30 / pb_ratio=1.20 / aq=3:0.80 / aq-sensitivity=10.00 / aq-factor=1.00:1.00:1.00 / aq2=0 / aq3=0
Language : English
Default : Yes
Forced : No

Audio #1
ID : 2
Format : AC-3
Format/Info : Audio Coding 3
Codec ID : A_AC3
Duration : 1 h 31 min
Bit rate mode : Constant
Bit rate : 192 kb/s
Channel(s) : 2 channels
Channel positions : Front: L R
Sampling rate : 48.0 kHz
Frame rate : 31.250 FPS (1536 SPF)
Bit depth : 16 bits
Compression mode : Lossy
Stream size : 126 MiB (1%)
Title : MVO HDRezka
Language : Russian
Service kind : Complete Main
Default : Yes
Forced : No

Audio #2
ID : 3
Format : DTS
Format/Info : Digital Theater Systems
Codec ID : A_DTS
Duration : 1 h 31 min
Bit rate mode : Constant
Bit rate : 1 509 kb/s
Channel(s) : 6 channels
Channel positions : Front: L C R, Side: L R, LFE
Sampling rate : 48.0 kHz
Frame rate : 93.750 FPS (512 SPF)
Bit depth : 16 bits
Compression mode : Lossy
Stream size : 989 MiB (9%)
Language : English
Default : No
Forced : No

Text #1
ID : 4
Format : UTF-8
Codec ID : S_TEXT/UTF8
Codec ID/Info : UTF-8 Plain Text
Duration : 45 s 493 ms
Bit rate : 133 b/s
Count of elements : 7
Stream size : 761 Bytes (0%)
Title : forced
Language : Russian
Default : Yes
Forced : Yes

Text #2
ID : 5
Format : UTF-8
Codec ID : S_TEXT/UTF8
Codec ID/Info : UTF-8 Plain Text
Duration : 1 h 29 min
Bit rate : 63 b/s
Count of elements : 1152
Stream size : 41.7 KiB (0%)
Language : English
Default : No
Forced : No

Menu
00:00:00.000 : :Chapter 01
00:05:08.266 : :Chapter 02
00:11:28.271 : :Chapter 03
00:16:36.746 : :Chapter 04
00:21:04.054 : :Chapter 05
00:30:22.612 : :Chapter 06
00:36:51.960 : :Chapter 07
00:43:00.161 : :Chapter 08
00:47:52.787 : :Chapter 09
00:55:21.735 : :Chapter 10
01:01:15.755 : :Chapter 11
01:07:14.447 : :Chapter 12
01:11:45.384 : :Chapter 13
01:15:02.873 : :Chapter 14
01:22:23.856 : :Chapter 15
01:28:33.808 : :Chapter 16[/code]


部分内容需要登录后才能查看。登录












电影,电视剧,字幕下载软件地址:http://www.byg520.com/magnetm/706d600a73684616a3d4d3145dc4ec04.html

还没有人发表评论哦~您要说点什么吗?

快捷评论:

 
 登录后可评论资源 ^0^ 点我登录