扫毒2:天地对决 The.White.Storm.2.Drug.Lords.2019.CHINESE.720p.BluRay.X264-WiKi

发布人: 匿名  
类型:电影  720P电影
[2019][香港][动作]
大小:5.61 GB
资源得分:暂无评分  / 该工友平均得分:  
 
 
 




◎译  名 扫毒2:天地对决
◎片  名 The White Storm 2: Drug Lords
◎年  代 2019
◎国  家 中国/中国香港
◎类  别 动作/剧情/犯罪
◎语  言 普通话
◎IMDb评分 6.2/10 from 263 users
◎IMDb链接 https://www.imdb.com/title/tt8239806/
◎片  长 1 h 39 min
◎导  演 邱礼涛 Herman Yau
◎主  演 刘德华 Andy Lau
       古天乐 Louis Koo
       苗侨伟 Kiu Wai Miu
       林嘉欣 Karena Lam 



◎简  介

  毒品市场维持四分天下的格局已久,但大毒枭地藏(古天乐饰)正计划吞并整个香港毒市建立自己的“毒品王国”,接连策划了一连串的黑吃黑事件之后,毒品市场腥风血雨,警员林正风(苗侨伟 饰)与他的扫毒行动组全力追缉毒贩。

      另一方面,余顺天(刘德华饰)已经从小混混一跃成为金融巨子兼扫毒“太平绅士”,正悬赏一亿追杀香港最大毒贩,此举在社会上引起轩然大波。原来,余顺天和地藏有着不可告人的同门关系,一场天地对决一触即发,在昔日的同门情谊面前,一正一邪两大天王谁能赢得这场天地对决?[code]Video
ID : 1
Format : AVC
Format/Info : Advanced Video Codec
Format profile : [email][email protected][/email]
Format settings : CABAC / 11 Ref Frames
Format settings, CABAC : Yes
Format settings, Reference frames : 11 frames
Codec ID : V_MPEG4/ISO/AVC
Duration : 1 h 39 min
Bit rate : 7 459 kb/s
Width : 1 280 pixels
Height : 546 pixels
Display aspect ratio : 2.35:1
Frame rate mode : Constant
Frame rate : 24.000 FPS
Color space : YUV
Chroma subsampling : 4:2:0
Bit depth : 8 bits
Scan type : Progressive
Bits/(Pixel*Frame) : 0.445
Stream size : 5.17 GiB (92%)
Writing library : x264 core 157 r2867+103 0d6443f t_mod_Custom_2 [[email protected] X86_64]
Encoding settings : cabac=1 / ref=11 / deblock=1:-3:-3 / analyse=0x3:0x133 / me=umh / subme=10 / psy=1 / fade_compensate=0.00 / psy_rd=1.00:0.00 / mixed_ref=1 / me_range=32 / chroma_me=1 / trellis=2 / 8x8dct=1 / cqm=0 / deadzone=21,11 / fast_pskip=0 / chroma_qp_offset=-2 / threads=17 / lookahead_threads=2 / sliced_threads=0 / nr=0 / decimate=0 / interlaced=0 / bluray_compat=0 / constrained_intra=0 / fgo=0 / bframes=8 / b_pyramid=2 / b_adapt=2 / b_bias=0 / direct=3 / weightb=1 / open_gop=0 / weightp=2 / keyint=250 / keyint_min=24 / scenecut=40 / intra_refresh=0 / rc=crf / mbtree=0 / crf=15.1000 / qcomp=0.60 / qpmin=0:0:0 / qpmax=69:69:69 / qpstep=4 / ip_ratio=1.30 / pb_ratio=1.20 / aq=3:0.85 / aq-sensitivity=10.00 / aq-factor=1.00:1.00:1.00 / aq2=0 / aq3=0
Language : English
Default : Yes
Forced : No

Audio
ID : 2
Format : AC-3
Format/Info : Audio Coding 3
Commercial name : Dolby Digital
Codec ID : A_AC3
Duration : 1 h 39 min
Bit rate mode : Constant
Bit rate : 640 kb/s
Channel(s) : 6 channels
Channel layout : L R C LFE Ls Rs
Sampling rate : 48.0 kHz
Frame rate : 31.250 FPS (1536 SPF)
Bit depth : 16 bits
Compression mode : Lossy
Stream size : 454 MiB (8%)
Title : Cantonese
Language : Chinese
Service kind : Complete Main
Default : Yes
Forced : No

Text #1
ID : 3
Format : UTF-8
Codec ID : S_TEXT/UTF8
Codec ID/Info : UTF-8 Plain Text
Duration : 1 h 33 min
Bit rate : 45 b/s
Count of elements : 1446
Stream size : 31.3 KiB (0%)
Language : English
Default : Yes
Forced : No

Text #2
ID : 4
Format : UTF-8
Codec ID : S_TEXT/UTF8
Codec ID/Info : UTF-8 Plain Text
Duration : 1 h 33 min
Bit rate : 41 b/s
Count of elements : 1441
Stream size : 28.6 KiB (0%)
Title : CHS
Language : Chinese
Default : No
Forced : No

Text #3
ID : 5
Format : UTF-8
Codec ID : S_TEXT/UTF8
Codec ID/Info : UTF-8 Plain Text
Duration : 1 h 33 min
Bit rate : 41 b/s
Count of elements : 1441
Stream size : 28.6 KiB (0%)
Title : CHT
Language : Chinese
Default : No
Forced : No

Menu
00:00:00.000 : en:00:00:00.000
00:13:58.000 : en:00:13:58.000
00:20:48.875 : en:00:20:48.875
00:27:56.750 : en:00:27:56.750
00:36:19.167 : en:00:36:19.167
00:45:58.958 : en:00:45:58.958
00:52:59.833 : en:00:52:59.833
01:06:52.750 : en:01:06:52.750
01:12:15.958 : en:01:12:15.958
01:18:07.292 : en:01:18:07.292
01:24:49.125 : en:01:24:49.125
01:35:06.000 : en:01:35:06.000[/code]



 


部分内容需要登录后才能查看。登录












电影,电视剧,字幕下载软件地址:http://www.byg520.com/magnetm/706d600a73684616a3d4d3145dc4ec04.html

还没有人发表评论哦~您要说点什么吗?

快捷评论:

 
 登录后可评论资源 ^0^ 点我登录