宿敌 Enemy.Within.2019.1080p.WEB-DL.DD5.1.H264-FGT 4.24 GiB

发布人: 匿名  
类型:电影  1080P电影
[2019][欧美][动作]
大小:4.24 GB
资源得分:暂无评分  / 该工友平均得分:  
 
 
 




◎译  名 宿敌
◎片  名 Enemy Within
◎年  代 2019
◎国  家 美国
◎类  别 动作/剧情/历史
◎语  言 英语
◎IMDb评分 6.2/10 from 15 users
◎IMDb链接 https://www.imdb.com/title/tt6525952/
◎片  长 1 h 49 min
◎导  演 加布里埃尔·罗伯逊 Gabriel Robertson
◎主  演 福岛莉拉 Rila Fukushima
       比尤拉·寇尔 Beulah Koale
       约瑟夫·纳瓦胡 Joseph Naufahu



◎简  介

  当一名日本飞行员坠毁在夏威夷的尼豪岛上时,他受到当地人的礼貌和传统的夏威夷款待,直到他们发现他是最近袭击珍珠港的一员

[code]Video
ID : 1
Format : AVC
Format/Info : Advanced Video Codec
Format profile : [email protected]
Format settings : CABAC / 4 Ref Frames
Format settings, CABAC : Yes
Format settings, Reference frames : 4 frames
Codec ID : V_MPEG4/ISO/AVC
Duration : 1 h 49 min
Bit rate : 5 174 kb/s
Width : 1 920 pixels
Height : 1 036 pixels
Display aspect ratio : 1.85:1
Frame rate mode : Constant
Frame rate : 24.000 FPS
Color space : YUV
Chroma subsampling : 4:2:0
Bit depth : 8 bits
Scan type : Progressive
Bits/(Pixel*Frame) : 0.108
Stream size : 3.95 GiB (93%)
Title : Enemy.Within.2019.1080p.WEB-DL.DD5.1.H264-FGT
Language : English
Default : Yes
Forced : No
Color range : Limited
Color primaries : BT.709
Transfer characteristics : BT.709
Matrix coefficients : BT.709

Audio
ID : 2
Format : AC-3
Format/Info : Audio Coding 3
Commercial name : Dolby Digital
Codec ID : A_AC3
Duration : 1 h 49 min
Bit rate mode : Constant
Bit rate : 384 kb/s
Channel(s) : 6 channels
Channel layout : L R C LFE Ls Rs
Sampling rate : 48.0 kHz
Frame rate : 31.250 FPS (1536 SPF)
Bit depth : 16 bits
Compression mode : Lossy
Stream size : 300 MiB (7%)
Title : Enemy.Within.2019.1080p.WEB-DL.DD5.1.H264-FGT
Language : English
Service kind : Complete Main
Default : Yes
Forced : No

Text
ID : 3
Format : UTF-8
Codec ID : S_TEXT/UTF8
Codec ID/Info : UTF-8 Plain Text
Duration : 1 h 47 min
Bit rate : 52 b/s
Count of elements : 1160
Stream size : 41.3 KiB (0%)
Language : English
Default : Yes
Forced : No

Menu
00:00:00.000 : en:Chapter 1
00:10:38.638 : en:Chapter 2
00:20:14.213 : en:Chapter 3
00:31:49.908 : en:Chapter 4
00:40:06.404 : en:Chapter 5
00:50:42.039 : en:Chapter 6
01:01:27.684 : en:Chapter 7
01:10:35.231 : en:Chapter 8
01:20:48.844 : en:Chapter 9
01:30:12.407 : en:Chapter 10
01:45:17.311 : en:Chapter 11
[/code]






部分内容需要登录后才能查看。登录












电影,电视剧,字幕下载软件地址:http://www.byg520.com/magnetm/706d600a73684616a3d4d3145dc4ec04.html

还没有人发表评论哦~您要说点什么吗?

快捷评论:

 
 登录后可评论资源 ^0^ 点我登录