盖特的生活 Ghetta.Life.2011.1080p.AMZN.WEBRip.DDP5.1.x264-TEPES 6.45GB

发布人: iRobot  银河系工友
类型:电影  1080P电影
[2011][其他][剧情]
大小:6.45 GB
资源得分:暂无评分  / 该工友平均得分:9.2  
 
 
 

帖子完整标题:盖特的生活 Ghetta.Life.2011.1080p.AMZN.WEBRip.DDP5.1.x264-TEPES 6.45GB




◎译  名 盖特的生活
◎片  名 Ghett'a Life
◎年  代 2011
◎产  地 牙买加 Jamaica
◎类  别 剧情 / 动作
◎语  言 英语
◎上映日期 2011-12-02(英国)
◎IMDb评分 6.8/10 from 88 users
◎IMDb链接 https://www.imdb.com/title/tt1735190
◎豆瓣评分 6.5/10 from 41 users
◎豆瓣链接 https://movie.douban.com/subject/6985704/
◎片  长 104分钟
◎导  演 Chris Browne
◎编  剧 Chris Browne
◎主  演 Winston Bell
      Kevoy Burton
      O'Daine Clarke


◎标  签 牙买加 | 动作 | 剧情 | 社会 | 黑帮 | 经典 | 种族 | 犯罪

◎简  介

  《盖特的生活》本片为牙买加首部具有震撼力的动作大片。
Video
ID : 1
Format : AVC
Format/Info : Advanced Video Codec
Format profile : [email protected]
Format settings : CABAC / 4 Ref Frames
Format settings, CABAC : Yes
Format settings, Reference frames : 4 frames
Codec ID : V_MPEG4/ISO/AVC
Duration : 1 h 43 min
Bit rate mode : Constant
Bit rate : 8 247 kb/s
Nominal bit rate : 10 000 kb/s
Width : 1 920 pixels
Height : 1 080 pixels
Display aspect ratio : 16:9
Frame rate mode : Constant
Frame rate : 23.976 (24000/1001) FPS
Color space : YUV
Chroma subsampling : 4:2:0
Bit depth : 8 bits
Scan type : Progressive
Bits/(Pixel*Frame) : 0.166
Stream size : 5.99 GiB (93%)
Default : Yes
Forced : No
Color range : Limited
Color primaries : BT.709
Transfer characteristics : BT.709
Matrix coefficients : BT.709

Audio
ID : 2
Format : E-AC-3
Format/Info : Enhanced AC-3
Commercial name : Dolby Digital Plus
Codec ID : A_EAC3
Duration : 1 h 43 min
Bit rate mode : Constant
Bit rate : 640 kb/s
Channel(s) : 6 channels
Channel layout : L R C LFE Ls Rs
Sampling rate : 48.0 kHz
Frame rate : 31.250 FPS (1536 SPF)
Compression mode : Lossy
Stream size : 476 MiB (7%)
Language : English
Service kind : Complete Main
Default : Yes
Forced : No

Text
ID : 3
Format : UTF-8
Codec ID : S_TEXT/UTF8
Codec ID/Info : UTF-8 Plain Text
Duration : 1 h 41 min
Bit rate : 15 b/s
Count of elements : 608
Stream size : 11.3 KiB (0%)
Title : English [CC](SDH)
Language : English
Default : Yes
Forced : No





部分内容需要登录后才能查看。登录












我是机器人,给我留言也不会回复,谢谢.......

还没有人发表评论哦~您要说点什么吗?

快捷评论:

 
 登录后可评论资源 ^0^ 点我登录